Untitled

From NanDesuKa, 3 Months ago, written in Plain Text, viewed 266 times.
URL https://paste.codenerd.com/view/f10dfacd Embed
Download Paste or View Raw
  1. General
  2. Unique ID                                : 58889994072189918303642334124036307160 (0x2C4DCCE0841639AD1A03BD229867B8D8)
  3. Complete name                            : Vinland.Saga.S01E01.1080p.NF.WEB-DL.DDP2.0.x264-NanDesuKa.mkv
  4. Format                                   : Matroska
  5. Format version                           : Version 4
  6. File size                                : 1.11 GiB
  7. Duration                                 : 29 min 4 s
  8. Overall bit rate mode                    : Variable
  9. Overall bit rate                         : 5 458 kb/s
  10. Encoded date                             : UTC 2021-07-16 21:37:16
  11. Writing application                      : mkvmerge v59.0.0 ('Shining Star') 64-bit
  12. Writing library                          : libebml v1.4.2 + libmatroska v1.6.4
  13.  
  14. Video
  15. ID                                       : 1
  16. Format                                   : AVC
  17. Format/Info                              : Advanced Video Codec
  18. Format profile                           : Main@L4
  19. Format settings                          : CABAC / 3 Ref Frames
  20. Format settings, CABAC                   : Yes
  21. Format settings, Reference frames        : 3 frames
  22. Codec ID                                 : V_MPEG4/ISO/AVC
  23. Duration                                 : 29 min 4 s
  24. Bit rate mode                            : Variable
  25. Bit rate                                 : 4 870 kb/s
  26. Maximum bit rate                         : 7 305 kb/s
  27. Width                                    : 1 920 pixels
  28. Height                                   : 1 080 pixels
  29. Display aspect ratio                     : 16:9
  30. Frame rate mode                          : Constant
  31. Frame rate                               : 23.976 (24000/1001) FPS
  32. Color space                              : YUV
  33. Chroma subsampling                       : 4:2:0
  34. Bit depth                                : 8 bits
  35. Scan type                                : Progressive
  36. Bits/(Pixel*Frame)                       : 0.098
  37. Stream size                              : 1 001 MiB (88%)
  38. Writing library                          : x264 core 148 r2722 1b0121b
  39. Encoding settings                        : cabac=1 / ref=3 / deblock=1:0:0 / analyse=0x1:0x111 / me=umh / subme=10 / psy=1 / psy_rd=1.00:0.00 / mixed_ref=1 / me_range=24 / chroma_me=1 / trellis=2 / 8x8dct=0 / cqm=0 / deadzone=21,11 / fast_pskip=1 / chroma_qp_offset=-2 / threads=8 / lookahead_threads=1 / sliced_threads=0 / nr=0 / decimate=1 / interlaced=0 / bluray_compat=0 / stitchable=1 / constrained_intra=0 / bframes=2 / b_pyramid=0 / b_adapt=2 / b_bias=0 / direct=3 / weightb=1 / open_gop=0 / weightp=2 / keyint=250 / keyint_min=23 / scenecut=0 / intra_refresh=0 / rc_lookahead=48 / rc=2pass / mbtree=1 / bitrate=4870 / ratetol=1.0 / qcomp=0.50 / qpmin=6 / qpmax=51 / qpstep=4 / cplxblur=20.0 / qblur=0.5 / vbv_maxrate=7305 / vbv_bufsize=9740 / nal_hrd=vbr / filler=0 / ip_ratio=1.40 / aq=1:1.00
  40. Default                                  : No
  41. Forced                                   : No
  42.  
  43. Audio #1
  44. ID                                       : 2
  45. Format                                   : E-AC-3
  46. Format/Info                              : Enhanced AC-3
  47. Commercial name                          : Dolby Digital Plus
  48. Codec ID                                 : A_EAC3
  49. Duration                                 : 29 min 4 s
  50. Bit rate mode                            : Constant
  51. Bit rate                                 : 128 kb/s
  52. Channel(s)                               : 2 channels
  53. Channel layout                           : L R
  54. Sampling rate                            : 48.0 kHz
  55. Frame rate                               : 31.250 FPS (1536 SPF)
  56. Bit depth                                : 32 bits
  57. Compression mode                         : Lossy
  58. Stream size                              : 26.6 MiB (2%)
  59. Title                                    : European
  60. Language                                 : Spanish
  61. Service kind                             : Complete Main
  62. Default                                  : No
  63. Forced                                   : No
  64.  
  65. Audio #2
  66. ID                                       : 3
  67. Format                                   : E-AC-3
  68. Format/Info                              : Enhanced AC-3
  69. Commercial name                          : Dolby Digital Plus
  70. Codec ID                                 : A_EAC3
  71. Duration                                 : 29 min 4 s
  72. Bit rate mode                            : Constant
  73. Bit rate                                 : 128 kb/s
  74. Channel(s)                               : 2 channels
  75. Channel layout                           : L R
  76. Sampling rate                            : 48.0 kHz
  77. Frame rate                               : 31.250 FPS (1536 SPF)
  78. Bit depth                                : 32 bits
  79. Compression mode                         : Lossy
  80. Stream size                              : 26.6 MiB (2%)
  81. Language                                 : French
  82. Service kind                             : Complete Main
  83. Default                                  : No
  84. Forced                                   : No
  85.  
  86. Audio #3
  87. ID                                       : 4
  88. Format                                   : E-AC-3
  89. Format/Info                              : Enhanced AC-3
  90. Commercial name                          : Dolby Digital Plus
  91. Codec ID                                 : A_EAC3
  92. Duration                                 : 29 min 4 s
  93. Bit rate mode                            : Constant
  94. Bit rate                                 : 128 kb/s
  95. Channel(s)                               : 2 channels
  96. Channel layout                           : L R
  97. Sampling rate                            : 48.0 kHz
  98. Frame rate                               : 31.250 FPS (1536 SPF)
  99. Bit depth                                : 32 bits
  100. Compression mode                         : Lossy
  101. Stream size                              : 26.6 MiB (2%)
  102. Language                                 : Italian
  103. Service kind                             : Complete Main
  104. Default                                  : No
  105. Forced                                   : No
  106.  
  107. Audio #4
  108. ID                                       : 5
  109. Format                                   : E-AC-3
  110. Format/Info                              : Enhanced AC-3
  111. Commercial name                          : Dolby Digital Plus
  112. Codec ID                                 : A_EAC3
  113. Duration                                 : 29 min 4 s
  114. Bit rate mode                            : Constant
  115. Bit rate                                 : 128 kb/s
  116. Channel(s)                               : 2 channels
  117. Channel layout                           : L R
  118. Sampling rate                            : 48.0 kHz
  119. Frame rate                               : 31.250 FPS (1536 SPF)
  120. Bit depth                                : 32 bits
  121. Compression mode                         : Lossy
  122. Stream size                              : 26.6 MiB (2%)
  123. Language                                 : Japanese
  124. Service kind                             : Complete Main
  125. Default                                  : Yes
  126. Forced                                   : No
  127.  
  128. Audio #5
  129. ID                                       : 6
  130. Format                                   : E-AC-3
  131. Format/Info                              : Enhanced AC-3
  132. Commercial name                          : Dolby Digital Plus
  133. Codec ID                                 : A_EAC3
  134. Duration                                 : 29 min 4 s
  135. Bit rate mode                            : Constant
  136. Bit rate                                 : 128 kb/s
  137. Channel(s)                               : 2 channels
  138. Channel layout                           : L R
  139. Sampling rate                            : 48.0 kHz
  140. Frame rate                               : 31.250 FPS (1536 SPF)
  141. Bit depth                                : 32 bits
  142. Compression mode                         : Lossy
  143. Stream size                              : 26.6 MiB (2%)
  144. Title                                    : Brazilian
  145. Language                                 : Portuguese
  146. Service kind                             : Complete Main
  147. Default                                  : No
  148. Forced                                   : No
  149.  
  150. Text #1
  151. ID                                       : 7
  152. Format                                   : UTF-8
  153. Codec ID                                 : S_TEXT/UTF8
  154. Codec ID/Info                            : UTF-8 Plain Text
  155. Duration                                 : 28 min 4 s
  156. Bit rate                                 : 47 b/s
  157. Count of elements                        : 327
  158. Stream size                              : 9.77 KiB (0%)
  159. Language                                 : French
  160. Default                                  : No
  161. Forced                                   : No
  162.  
  163. Text #2
  164. ID                                       : 8
  165. Format                                   : UTF-8
  166. Codec ID                                 : S_TEXT/UTF8
  167. Codec ID/Info                            : UTF-8 Plain Text
  168. Duration                                 : 28 min 2 s
  169. Bit rate                                 : 68 b/s
  170. Count of elements                        : 379
  171. Stream size                              : 14.0 KiB (0%)
  172. Title                                    : SDH
  173. Language                                 : Japanese
  174. Default                                  : No
  175. Forced                                   : No
  176.  
  177. Text #3
  178. ID                                       : 9
  179. Format                                   : UTF-8
  180. Codec ID                                 : S_TEXT/UTF8
  181. Codec ID/Info                            : UTF-8 Plain Text
  182. Duration                                 : 28 min 4 s
  183. Bit rate                                 : 75 b/s
  184. Count of elements                        : 327
  185. Stream size                              : 15.5 KiB (0%)
  186. Language                                 : Arabic
  187. Default                                  : No
  188. Forced                                   : No
  189.  
  190. Text #4
  191. ID                                       : 10
  192. Format                                   : UTF-8
  193. Codec ID                                 : S_TEXT/UTF8
  194. Codec ID/Info                            : UTF-8 Plain Text
  195. Duration                                 : 28 min 4 s
  196. Bit rate                                 : 44 b/s
  197. Count of elements                        : 335
  198. Stream size                              : 9.20 KiB (0%)
  199. Language                                 : Czech
  200. Default                                  : No
  201. Forced                                   : No
  202.  
  203. Text #5
  204. ID                                       : 11
  205. Format                                   : UTF-8
  206. Codec ID                                 : S_TEXT/UTF8
  207. Codec ID/Info                            : UTF-8 Plain Text
  208. Duration                                 : 28 min 4 s
  209. Bit rate                                 : 44 b/s
  210. Count of elements                        : 283
  211. Stream size                              : 9.17 KiB (0%)
  212. Language                                 : Danish
  213. Default                                  : No
  214. Forced                                   : No
  215.  
  216. Text #6
  217. ID                                       : 12
  218. Format                                   : UTF-8
  219. Codec ID                                 : S_TEXT/UTF8
  220. Codec ID/Info                            : UTF-8 Plain Text
  221. Duration                                 : 28 min 4 s
  222. Bit rate                                 : 46 b/s
  223. Count of elements                        : 271
  224. Stream size                              : 9.64 KiB (0%)
  225. Language                                 : German
  226. Default                                  : No
  227. Forced                                   : No
  228.  
  229. Text #7
  230. ID                                       : 13
  231. Format                                   : UTF-8
  232. Codec ID                                 : S_TEXT/UTF8
  233. Codec ID/Info                            : UTF-8 Plain Text
  234. Duration                                 : 28 min 4 s
  235. Bit rate                                 : 79 b/s
  236. Count of elements                        : 317
  237. Stream size                              : 16.3 KiB (0%)
  238. Language                                 : Greek
  239. Default                                  : No
  240. Forced                                   : No
  241.  
  242. Text #8
  243. ID                                       : 14
  244. Format                                   : UTF-8
  245. Codec ID                                 : S_TEXT/UTF8
  246. Codec ID/Info                            : UTF-8 Plain Text
  247. Duration                                 : 28 min 4 s
  248. Bit rate                                 : 43 b/s
  249. Count of elements                        : 324
  250. Stream size                              : 8.99 KiB (0%)
  251. Language                                 : English
  252. Default                                  : Yes
  253. Forced                                   : No
  254.  
  255. Text #9
  256. ID                                       : 15
  257. Format                                   : UTF-8
  258. Codec ID                                 : S_TEXT/UTF8
  259. Codec ID/Info                            : UTF-8 Plain Text
  260. Duration                                 : 28 min 4 s
  261. Bit rate                                 : 44 b/s
  262. Count of elements                        : 324
  263. Stream size                              : 9.25 KiB (0%)
  264. Title                                    : Latin American
  265. Language                                 : Spanish
  266. Default                                  : No
  267. Forced                                   : No
  268.  
  269. Text #10
  270. ID                                       : 16
  271. Format                                   : UTF-8
  272. Codec ID                                 : S_TEXT/UTF8
  273. Codec ID/Info                            : UTF-8 Plain Text
  274. Duration                                 : 28 min 4 s
  275. Bit rate                                 : 44 b/s
  276. Count of elements                        : 310
  277. Stream size                              : 9.09 KiB (0%)
  278. Title                                    : European
  279. Language                                 : Spanish
  280. Default                                  : No
  281. Forced                                   : No
  282.  
  283. Text #11
  284. ID                                       : 17
  285. Format                                   : UTF-8
  286. Codec ID                                 : S_TEXT/UTF8
  287. Codec ID/Info                            : UTF-8 Plain Text
  288. Duration                                 : 28 min 4 s
  289. Bit rate                                 : 42 b/s
  290. Count of elements                        : 319
  291. Stream size                              : 8.73 KiB (0%)
  292. Language                                 : Finnish
  293. Default                                  : No
  294. Forced                                   : No
  295.  
  296. Text #12
  297. ID                                       : 18
  298. Format                                   : UTF-8
  299. Codec ID                                 : S_TEXT/UTF8
  300. Codec ID/Info                            : UTF-8 Plain Text
  301. Duration                                 : 28 min 4 s
  302. Bit rate                                 : 65 b/s
  303. Count of elements                        : 323
  304. Stream size                              : 13.5 KiB (0%)
  305. Language                                 : Hebrew
  306. Default                                  : No
  307. Forced                                   : No
  308.  
  309. Text #13
  310. ID                                       : 19
  311. Format                                   : UTF-8
  312. Codec ID                                 : S_TEXT/UTF8
  313. Codec ID/Info                            : UTF-8 Plain Text
  314. Duration                                 : 28 min 4 s
  315. Bit rate                                 : 41 b/s
  316. Count of elements                        : 265
  317. Stream size                              : 8.53 KiB (0%)
  318. Language                                 : Croatian
  319. Default                                  : No
  320. Forced                                   : No
  321.  
  322. Text #14
  323. ID                                       : 20
  324. Format                                   : UTF-8
  325. Codec ID                                 : S_TEXT/UTF8
  326. Codec ID/Info                            : UTF-8 Plain Text
  327. Duration                                 : 28 min 4 s
  328. Bit rate                                 : 43 b/s
  329. Count of elements                        : 291
  330. Stream size                              : 9.04 KiB (0%)
  331. Language                                 : Hungarian
  332. Default                                  : No
  333. Forced                                   : No
  334.  
  335. Text #15
  336. ID                                       : 21
  337. Format                                   : UTF-8
  338. Codec ID                                 : S_TEXT/UTF8
  339. Codec ID/Info                            : UTF-8 Plain Text
  340. Duration                                 : 28 min 4 s
  341. Bit rate                                 : 44 b/s
  342. Count of elements                        : 281
  343. Stream size                              : 9.08 KiB (0%)
  344. Language                                 : Indonesian
  345. Default                                  : No
  346. Forced                                   : No
  347.  
  348. Text #16
  349. ID                                       : 22
  350. Format                                   : UTF-8
  351. Codec ID                                 : S_TEXT/UTF8
  352. Codec ID/Info                            : UTF-8 Plain Text
  353. Duration                                 : 28 min 2 s
  354. Bit rate                                 : 42 b/s
  355. Count of elements                        : 326
  356. Stream size                              : 8.76 KiB (0%)
  357. Language                                 : Italian
  358. Default                                  : No
  359. Forced                                   : No
  360.  
  361. Text #17
  362. ID                                       : 23
  363. Format                                   : UTF-8
  364. Codec ID                                 : S_TEXT/UTF8
  365. Codec ID/Info                            : UTF-8 Plain Text
  366. Duration                                 : 28 min 4 s
  367. Bit rate                                 : 49 b/s
  368. Count of elements                        : 330
  369. Stream size                              : 10.2 KiB (0%)
  370. Language                                 : Korean
  371. Default                                  : No
  372. Forced                                   : No
  373.  
  374. Text #18
  375. ID                                       : 24
  376. Format                                   : UTF-8
  377. Codec ID                                 : S_TEXT/UTF8
  378. Codec ID/Info                            : UTF-8 Plain Text
  379. Duration                                 : 28 min 4 s
  380. Bit rate                                 : 43 b/s
  381. Count of elements                        : 323
  382. Stream size                              : 8.85 KiB (0%)
  383. Language                                 : Malay
  384. Default                                  : No
  385. Forced                                   : No
  386.  
  387. Text #19
  388. ID                                       : 25
  389. Format                                   : UTF-8
  390. Codec ID                                 : S_TEXT/UTF8
  391. Codec ID/Info                            : UTF-8 Plain Text
  392. Duration                                 : 28 min 4 s
  393. Bit rate                                 : 42 b/s
  394. Count of elements                        : 265
  395. Stream size                              : 8.75 KiB (0%)
  396. Language                                 : Norwegian Bokmal
  397. Default                                  : No
  398. Forced                                   : No
  399.  
  400. Text #20
  401. ID                                       : 26
  402. Format                                   : UTF-8
  403. Codec ID                                 : S_TEXT/UTF8
  404. Codec ID/Info                            : UTF-8 Plain Text
  405. Duration                                 : 28 min 4 s
  406. Bit rate                                 : 43 b/s
  407. Count of elements                        : 292
  408. Stream size                              : 9.01 KiB (0%)
  409. Language                                 : Dutch
  410. Default                                  : No
  411. Forced                                   : No
  412.  
  413. Text #21
  414. ID                                       : 27
  415. Format                                   : UTF-8
  416. Codec ID                                 : S_TEXT/UTF8
  417. Codec ID/Info                            : UTF-8 Plain Text
  418. Duration                                 : 28 min 4 s
  419. Bit rate                                 : 43 b/s
  420. Count of elements                        : 325
  421. Stream size                              : 8.87 KiB (0%)
  422. Language                                 : Polish
  423. Default                                  : No
  424. Forced                                   : No
  425.  
  426. Text #22
  427. ID                                       : 28
  428. Format                                   : UTF-8
  429. Codec ID                                 : S_TEXT/UTF8
  430. Codec ID/Info                            : UTF-8 Plain Text
  431. Duration                                 : 28 min 4 s
  432. Bit rate                                 : 45 b/s
  433. Count of elements                        : 318
  434. Stream size                              : 9.39 KiB (0%)
  435. Title                                    : European
  436. Language                                 : Portuguese
  437. Default                                  : No
  438. Forced                                   : No
  439.  
  440. Text #23
  441. ID                                       : 29
  442. Format                                   : UTF-8
  443. Codec ID                                 : S_TEXT/UTF8
  444. Codec ID/Info                            : UTF-8 Plain Text
  445. Duration                                 : 28 min 4 s
  446. Bit rate                                 : 45 b/s
  447. Count of elements                        : 327
  448. Stream size                              : 9.31 KiB (0%)
  449. Title                                    : Brazilian
  450. Language                                 : Portuguese
  451. Default                                  : No
  452. Forced                                   : No
  453.  
  454. Text #24
  455. ID                                       : 30
  456. Format                                   : UTF-8
  457. Codec ID                                 : S_TEXT/UTF8
  458. Codec ID/Info                            : UTF-8 Plain Text
  459. Duration                                 : 28 min 4 s
  460. Bit rate                                 : 43 b/s
  461. Count of elements                        : 311
  462. Stream size                              : 8.94 KiB (0%)
  463. Language                                 : Romanian
  464. Default                                  : No
  465. Forced                                   : No
  466.  
  467. Text #25
  468. ID                                       : 31
  469. Format                                   : UTF-8
  470. Codec ID                                 : S_TEXT/UTF8
  471. Codec ID/Info                            : UTF-8 Plain Text
  472. Duration                                 : 28 min 4 s
  473. Bit rate                                 : 68 b/s
  474. Count of elements                        : 287
  475. Stream size                              : 14.1 KiB (0%)
  476. Language                                 : Russian
  477. Default                                  : No
  478. Forced                                   : No
  479.  
  480. Text #26
  481. ID                                       : 32
  482. Format                                   : UTF-8
  483. Codec ID                                 : S_TEXT/UTF8
  484. Codec ID/Info                            : UTF-8 Plain Text
  485. Duration                                 : 28 min 4 s
  486. Bit rate                                 : 43 b/s
  487. Count of elements                        : 287
  488. Stream size                              : 8.91 KiB (0%)
  489. Language                                 : Swedish
  490. Default                                  : No
  491. Forced                                   : No
  492.  
  493. Text #27
  494. ID                                       : 33
  495. Format                                   : UTF-8
  496. Codec ID                                 : S_TEXT/UTF8
  497. Codec ID/Info                            : UTF-8 Plain Text
  498. Duration                                 : 28 min 4 s
  499. Bit rate                                 : 114 b/s
  500. Count of elements                        : 327
  501. Stream size                              : 23.5 KiB (0%)
  502. Language                                 : Thai
  503. Default                                  : No
  504. Forced                                   : No
  505.  
  506. Text #28
  507. ID                                       : 34
  508. Format                                   : UTF-8
  509. Codec ID                                 : S_TEXT/UTF8
  510. Codec ID/Info                            : UTF-8 Plain Text
  511. Duration                                 : 28 min 4 s
  512. Bit rate                                 : 44 b/s
  513. Count of elements                        : 288
  514. Stream size                              : 9.17 KiB (0%)
  515. Language                                 : Turkish
  516. Default                                  : No
  517. Forced                                   : No
  518.  
  519. Text #29
  520. ID                                       : 35
  521. Format                                   : UTF-8
  522. Codec ID                                 : S_TEXT/UTF8
  523. Codec ID/Info                            : UTF-8 Plain Text
  524. Duration                                 : 28 min 4 s
  525. Bit rate                                 : 64 b/s
  526. Count of elements                        : 302
  527. Stream size                              : 13.2 KiB (0%)
  528. Language                                 : Vietnamese
  529. Default                                  : No
  530. Forced                                   : No
  531.  
  532. Text #30
  533. ID                                       : 36
  534. Format                                   : UTF-8
  535. Codec ID                                 : S_TEXT/UTF8
  536. Codec ID/Info                            : UTF-8 Plain Text
  537. Duration                                 : 28 min 4 s
  538. Bit rate                                 : 42 b/s
  539. Count of elements                        : 327
  540. Stream size                              : 8.72 KiB (0%)
  541. Title                                    : Simplified
  542. Language                                 : Chinese
  543. Default                                  : No
  544. Forced                                   : No
  545.  
  546. Text #31
  547. ID                                       : 37
  548. Format                                   : UTF-8
  549. Codec ID                                 : S_TEXT/UTF8
  550. Codec ID/Info                            : UTF-8 Plain Text
  551. Duration                                 : 28 min 4 s
  552. Bit rate                                 : 38 b/s
  553. Count of elements                        : 327
  554. Stream size                              : 7.98 KiB (0%)
  555. Title                                    : Traditional
  556. Language                                 : Chinese
  557. Default                                  : No
  558. Forced                                   : No

Reply to "Untitled"

Here you can reply to the paste above

abcdefg