Dynasty Warriors (2021)

From NanDesuKa, 3 Months ago, written in Plain Text, viewed 280 times.
URL https://paste.codenerd.com/view/0e4e819b Embed
Download Paste or View Raw
  1. General
  2. Unique ID                                : 277995652410053795294907184431519939381 (0xD12403E01F8ADCD4C5DB22C2973ABB35)
  3. Complete name                            : Dynasty.Warriors.2021.1080p.NF.WEB-DL.DDP5.1.x264-NanDesuKa.mkv
  4. Format                                   : Matroska
  5. Format version                           : Version 4
  6. File size                                : 6.18 GiB
  7. Duration                                 : 1 h 58 min
  8. Overall bit rate mode                    : Variable
  9. Overall bit rate                         : 7 476 kb/s
  10. Encoded date                             : UTC 2021-07-01 12:25:00
  11. Writing application                      : mkvmerge v58.0.0 ('Supper's Ready') 64-bit
  12. Writing library                          : libebml v1.4.2 + libmatroska v1.6.4
  13.  
  14. Video
  15. ID                                       : 1
  16. Format                                   : AVC
  17. Format/Info                              : Advanced Video Codec
  18. Format profile                           : Main@L4
  19. Format settings                          : CABAC / 3 Ref Frames
  20. Format settings, CABAC                   : Yes
  21. Format settings, Reference frames        : 3 frames
  22. Codec ID                                 : V_MPEG4/ISO/AVC
  23. Duration                                 : 1 h 58 min
  24. Bit rate mode                            : Variable
  25. Bit rate                                 : 5 551 kb/s
  26. Nominal bit rate                         : 3 582 kb/s
  27. Maximum bit rate                         : 11.2 Mb/s
  28. Width                                    : 1 920 pixels
  29. Height                                   : 1 080 pixels
  30. Display aspect ratio                     : 16:9
  31. Frame rate mode                          : Constant
  32. Frame rate                               : 24.000 FPS
  33. Color space                              : YUV
  34. Chroma subsampling                       : 4:2:0
  35. Bit depth                                : 8 bits
  36. Scan type                                : Progressive
  37. Bits/(Pixel*Frame)                       : 0.112
  38. Stream size                              : 4.59 GiB (74%)
  39. Writing library                          : x264 core 148 r2722 1b0121b
  40. Encoding settings                        : cabac=1 / ref=3 / deblock=1:0:0 / analyse=0x1:0x111 / me=umh / subme=10 / psy=1 / psy_rd=1.00:0.00 / mixed_ref=1 / me_range=24 / chroma_me=1 / trellis=2 / 8x8dct=0 / cqm=0 / deadzone=21,11 / fast_pskip=1 / chroma_qp_offset=-2 / threads=6 / lookahead_threads=1 / sliced_threads=0 / nr=0 / decimate=1 / interlaced=0 / bluray_compat=0 / stitchable=1 / constrained_intra=0 / bframes=2 / b_pyramid=0 / b_adapt=2 / b_bias=0 / direct=3 / weightb=1 / open_gop=0 / weightp=2 / keyint=250 / keyint_min=24 / scenecut=0 / intra_refresh=0 / rc_lookahead=48 / rc=2pass / mbtree=1 / bitrate=3582 / ratetol=1.0 / qcomp=0.50 / qpmin=6 / qpmax=51 / qpstep=4 / cplxblur=20.0 / qblur=0.5 / vbv_maxrate=11250 / vbv_bufsize=15000 / nal_hrd=vbr / filler=0 / ip_ratio=1.40 / aq=1:1.00
  41. Default                                  : Yes
  42. Forced                                   : No
  43.  
  44. Audio #1
  45. ID                                       : 2
  46. Format                                   : E-AC-3
  47. Format/Info                              : Enhanced AC-3
  48. Commercial name                          : Dolby Digital Plus
  49. Codec ID                                 : A_EAC3
  50. Duration                                 : 1 h 58 min
  51. Bit rate mode                            : Constant
  52. Bit rate                                 : 640 kb/s
  53. Channel(s)                               : 6 channels
  54. Channel layout                           : L R C LFE Ls Rs
  55. Sampling rate                            : 48.0 kHz
  56. Frame rate                               : 31.250 FPS (1536 SPF)
  57. Compression mode                         : Lossy
  58. Stream size                              : 542 MiB (9%)
  59. Title                                    : English
  60. Language                                 : English
  61. Service kind                             : Complete Main
  62. Default                                  : No
  63. Forced                                   : No
  64.  
  65. Audio #2
  66. ID                                       : 3
  67. Format                                   : E-AC-3
  68. Format/Info                              : Enhanced AC-3
  69. Commercial name                          : Dolby Digital Plus
  70. Codec ID                                 : A_EAC3
  71. Duration                                 : 1 h 58 min
  72. Bit rate mode                            : Constant
  73. Bit rate                                 : 640 kb/s
  74. Channel(s)                               : 6 channels
  75. Channel layout                           : L R C LFE Ls Rs
  76. Sampling rate                            : 48.0 kHz
  77. Frame rate                               : 31.250 FPS (1536 SPF)
  78. Compression mode                         : Lossy
  79. Stream size                              : 542 MiB (9%)
  80. Title                                    : Cantonese
  81. Language                                 : Chinese
  82. Service kind                             : Complete Main
  83. Default                                  : Yes
  84. Forced                                   : No
  85.  
  86. Audio #3
  87. ID                                       : 4
  88. Format                                   : E-AC-3
  89. Format/Info                              : Enhanced AC-3
  90. Commercial name                          : Dolby Digital Plus
  91. Codec ID                                 : A_EAC3
  92. Duration                                 : 1 h 58 min
  93. Bit rate mode                            : Constant
  94. Bit rate                                 : 640 kb/s
  95. Channel(s)                               : 6 channels
  96. Channel layout                           : L R C LFE Ls Rs
  97. Sampling rate                            : 48.0 kHz
  98. Frame rate                               : 31.250 FPS (1536 SPF)
  99. Compression mode                         : Lossy
  100. Stream size                              : 542 MiB (9%)
  101. Title                                    : Thai
  102. Language                                 : Thai
  103. Service kind                             : Complete Main
  104. Default                                  : No
  105. Forced                                   : No
  106.  
  107. Text #1
  108. ID                                       : 5
  109. Format                                   : UTF-8
  110. Codec ID                                 : S_TEXT/UTF8
  111. Codec ID/Info                            : UTF-8 Plain Text
  112. Duration                                 : 1 h 51 min
  113. Bit rate                                 : 47 b/s
  114. Count of elements                        : 1195
  115. Stream size                              : 38.6 KiB (0%)
  116. Title                                    : English
  117. Language                                 : English
  118. Default                                  : Yes
  119. Forced                                   : No
  120.  
  121. Text #2
  122. ID                                       : 6
  123. Format                                   : UTF-8
  124. Codec ID                                 : S_TEXT/UTF8
  125. Codec ID/Info                            : UTF-8 Plain Text
  126. Duration                                 : 1 h 57 min
  127. Bit rate                                 : 72 b/s
  128. Count of elements                        : 1221
  129. Stream size                              : 61.9 KiB (0%)
  130. Title                                    : Arabic
  131. Language                                 : Arabic
  132. Default                                  : No
  133. Forced                                   : No
  134.  
  135. Text #3
  136. ID                                       : 7
  137. Format                                   : UTF-8
  138. Codec ID                                 : S_TEXT/UTF8
  139. Codec ID/Info                            : UTF-8 Plain Text
  140. Duration                                 : 1 h 53 min
  141. Bit rate                                 : 39 b/s
  142. Count of elements                        : 1351
  143. Stream size                              : 32.9 KiB (0%)
  144. Title                                    : Chinese Simplified
  145. Language                                 : Chinese
  146. Default                                  : No
  147. Forced                                   : No
  148.  
  149. Text #4
  150. ID                                       : 8
  151. Format                                   : UTF-8
  152. Codec ID                                 : S_TEXT/UTF8
  153. Codec ID/Info                            : UTF-8 Plain Text
  154. Duration                                 : 1 h 56 min
  155. Bit rate                                 : 37 b/s
  156. Count of elements                        : 1317
  157. Stream size                              : 31.9 KiB (0%)
  158. Title                                    : Chinese Traditional
  159. Language                                 : Chinese
  160. Default                                  : No
  161. Forced                                   : No
  162.  
  163. Text #5
  164. ID                                       : 9
  165. Format                                   : UTF-8
  166. Codec ID                                 : S_TEXT/UTF8
  167. Codec ID/Info                            : UTF-8 Plain Text
  168. Duration                                 : 1 h 57 min
  169. Bit rate                                 : 45 b/s
  170. Count of elements                        : 1216
  171. Stream size                              : 38.8 KiB (0%)
  172. Title                                    : Danish
  173. Language                                 : Danish
  174. Default                                  : No
  175. Forced                                   : No
  176.  
  177. Text #6
  178. ID                                       : 10
  179. Format                                   : UTF-8
  180. Codec ID                                 : S_TEXT/UTF8
  181. Codec ID/Info                            : UTF-8 Plain Text
  182. Duration                                 : 1 h 57 min
  183. Bit rate                                 : 45 b/s
  184. Count of elements                        : 1182
  185. Stream size                              : 39.2 KiB (0%)
  186. Title                                    : Dutch
  187. Language                                 : Dutch
  188. Default                                  : No
  189. Forced                                   : No
  190.  
  191. Text #7
  192. ID                                       : 11
  193. Format                                   : UTF-8
  194. Codec ID                                 : S_TEXT/UTF8
  195. Codec ID/Info                            : UTF-8 Plain Text
  196. Duration                                 : 1 h 57 min
  197. Bit rate                                 : 46 b/s
  198. Count of elements                        : 1220
  199. Stream size                              : 40.1 KiB (0%)
  200. Title                                    : Finnish
  201. Language                                 : Finnish
  202. Default                                  : No
  203. Forced                                   : No
  204.  
  205. Text #8
  206. ID                                       : 12
  207. Format                                   : UTF-8
  208. Codec ID                                 : S_TEXT/UTF8
  209. Codec ID/Info                            : UTF-8 Plain Text
  210. Duration                                 : 1 h 57 min
  211. Bit rate                                 : 47 b/s
  212. Count of elements                        : 1211
  213. Stream size                              : 40.5 KiB (0%)
  214. Title                                    : French
  215. Language                                 : French
  216. Default                                  : No
  217. Forced                                   : No
  218.  
  219. Text #9
  220. ID                                       : 13
  221. Format                                   : UTF-8
  222. Codec ID                                 : S_TEXT/UTF8
  223. Codec ID/Info                            : UTF-8 Plain Text
  224. Duration                                 : 1 h 57 min
  225. Bit rate                                 : 48 b/s
  226. Count of elements                        : 1220
  227. Stream size                              : 41.9 KiB (0%)
  228. Title                                    : German
  229. Language                                 : German
  230. Default                                  : No
  231. Forced                                   : No
  232.  
  233. Text #10
  234. ID                                       : 14
  235. Format                                   : UTF-8
  236. Codec ID                                 : S_TEXT/UTF8
  237. Codec ID/Info                            : UTF-8 Plain Text
  238. Duration                                 : 1 h 57 min
  239. Bit rate                                 : 82 b/s
  240. Count of elements                        : 1219
  241. Stream size                              : 70.6 KiB (0%)
  242. Title                                    : Greek
  243. Language                                 : Greek
  244. Default                                  : No
  245. Forced                                   : No
  246.  
  247. Text #11
  248. ID                                       : 15
  249. Format                                   : UTF-8
  250. Codec ID                                 : S_TEXT/UTF8
  251. Codec ID/Info                            : UTF-8 Plain Text
  252. Duration                                 : 1 h 57 min
  253. Bit rate                                 : 68 b/s
  254. Count of elements                        : 1221
  255. Stream size                              : 58.4 KiB (0%)
  256. Title                                    : Hebrew
  257. Language                                 : Hebrew
  258. Default                                  : No
  259. Forced                                   : No
  260.  
  261. Text #12
  262. ID                                       : 16
  263. Format                                   : UTF-8
  264. Codec ID                                 : S_TEXT/UTF8
  265. Codec ID/Info                            : UTF-8 Plain Text
  266. Duration                                 : 1 h 57 min
  267. Bit rate                                 : 45 b/s
  268. Count of elements                        : 1212
  269. Stream size                              : 39.3 KiB (0%)
  270. Title                                    : Indonesian
  271. Language                                 : Indonesian
  272. Default                                  : No
  273. Forced                                   : No
  274.  
  275. Text #13
  276. ID                                       : 17
  277. Format                                   : UTF-8
  278. Codec ID                                 : S_TEXT/UTF8
  279. Codec ID/Info                            : UTF-8 Plain Text
  280. Duration                                 : 1 h 57 min
  281. Bit rate                                 : 44 b/s
  282. Count of elements                        : 1220
  283. Stream size                              : 38.5 KiB (0%)
  284. Title                                    : Italian
  285. Language                                 : Italian
  286. Default                                  : No
  287. Forced                                   : No
  288.  
  289. Text #14
  290. ID                                       : 18
  291. Format                                   : UTF-8
  292. Codec ID                                 : S_TEXT/UTF8
  293. Codec ID/Info                            : UTF-8 Plain Text
  294. Duration                                 : 1 h 57 min
  295. Bit rate                                 : 41 b/s
  296. Count of elements                        : 1219
  297. Stream size                              : 35.2 KiB (0%)
  298. Title                                    : Malay
  299. Language                                 : Malay
  300. Default                                  : No
  301. Forced                                   : No
  302.  
  303. Text #15
  304. ID                                       : 19
  305. Format                                   : UTF-8
  306. Codec ID                                 : S_TEXT/UTF8
  307. Codec ID/Info                            : UTF-8 Plain Text
  308. Duration                                 : 1 h 57 min
  309. Bit rate                                 : 36 b/s
  310. Count of elements                        : 1215
  311. Stream size                              : 31.6 KiB (0%)
  312. Title                                    : Polish
  313. Language                                 : Polish
  314. Default                                  : No
  315. Forced                                   : No
  316.  
  317. Text #16
  318. ID                                       : 20
  319. Format                                   : UTF-8
  320. Codec ID                                 : S_TEXT/UTF8
  321. Codec ID/Info                            : UTF-8 Plain Text
  322. Duration                                 : 1 h 57 min
  323. Bit rate                                 : 46 b/s
  324. Count of elements                        : 1217
  325. Stream size                              : 39.7 KiB (0%)
  326. Title                                    : Portuguese
  327. Language                                 : Portuguese
  328. Default                                  : No
  329. Forced                                   : No
  330.  
  331. Text #17
  332. ID                                       : 21
  333. Format                                   : UTF-8
  334. Codec ID                                 : S_TEXT/UTF8
  335. Codec ID/Info                            : UTF-8 Plain Text
  336. Duration                                 : 1 h 57 min
  337. Bit rate                                 : 44 b/s
  338. Count of elements                        : 1196
  339. Stream size                              : 38.6 KiB (0%)
  340. Title                                    : Brazilian Portuguese
  341. Language                                 : Portuguese
  342. Default                                  : No
  343. Forced                                   : No
  344.  
  345. Text #18
  346. ID                                       : 22
  347. Format                                   : UTF-8
  348. Codec ID                                 : S_TEXT/UTF8
  349. Codec ID/Info                            : UTF-8 Plain Text
  350. Duration                                 : 1 h 57 min
  351. Bit rate                                 : 50 b/s
  352. Count of elements                        : 1218
  353. Stream size                              : 43.3 KiB (0%)
  354. Title                                    : Romanian
  355. Language                                 : Romanian
  356. Default                                  : No
  357. Forced                                   : No
  358.  
  359. Text #19
  360. ID                                       : 23
  361. Format                                   : UTF-8
  362. Codec ID                                 : S_TEXT/UTF8
  363. Codec ID/Info                            : UTF-8 Plain Text
  364. Duration                                 : 1 h 57 min
  365. Bit rate                                 : 42 b/s
  366. Count of elements                        : 1221
  367. Stream size                              : 36.5 KiB (0%)
  368. Title                                    : Spanish
  369. Language                                 : Spanish
  370. Default                                  : No
  371. Forced                                   : No
  372.  
  373. Text #20
  374. ID                                       : 24
  375. Format                                   : UTF-8
  376. Codec ID                                 : S_TEXT/UTF8
  377. Codec ID/Info                            : UTF-8 Plain Text
  378. Duration                                 : 1 h 57 min
  379. Bit rate                                 : 45 b/s
  380. Count of elements                        : 1223
  381. Stream size                              : 39.1 KiB (0%)
  382. Title                                    : European Spanish
  383. Language                                 : Spanish
  384. Default                                  : No
  385. Forced                                   : No
  386.  
  387. Text #21
  388. ID                                       : 25
  389. Format                                   : UTF-8
  390. Codec ID                                 : S_TEXT/UTF8
  391. Codec ID/Info                            : UTF-8 Plain Text
  392. Duration                                 : 1 h 57 min
  393. Bit rate                                 : 46 b/s
  394. Count of elements                        : 1219
  395. Stream size                              : 40.1 KiB (0%)
  396. Title                                    : Swedish
  397. Language                                 : Swedish
  398. Default                                  : No
  399. Forced                                   : No
  400.  
  401. Text #22
  402. ID                                       : 26
  403. Format                                   : UTF-8
  404. Codec ID                                 : S_TEXT/UTF8
  405. Codec ID/Info                            : UTF-8 Plain Text
  406. Duration                                 : 1 h 57 min
  407. Bit rate                                 : 108 b/s
  408. Count of elements                        : 1226
  409. Stream size                              : 93.2 KiB (0%)
  410. Title                                    : Thai
  411. Language                                 : Thai
  412. Default                                  : No
  413. Forced                                   : No
  414.  
  415. Text #23
  416. ID                                       : 27
  417. Format                                   : UTF-8
  418. Codec ID                                 : S_TEXT/UTF8
  419. Codec ID/Info                            : UTF-8 Plain Text
  420. Duration                                 : 1 h 57 min
  421. Bit rate                                 : 47 b/s
  422. Count of elements                        : 1210
  423. Stream size                              : 40.3 KiB (0%)
  424. Title                                    : Turkish
  425. Language                                 : Turkish
  426. Default                                  : No
  427. Forced                                   : No
  428.  
  429. Text #24
  430. ID                                       : 28
  431. Format                                   : UTF-8
  432. Codec ID                                 : S_TEXT/UTF8
  433. Codec ID/Info                            : UTF-8 Plain Text
  434. Duration                                 : 1 h 57 min
  435. Bit rate                                 : 75 b/s
  436. Count of elements                        : 1222
  437. Stream size                              : 64.7 KiB (0%)
  438. Title                                    : Ukrainian
  439. Language                                 : Ukrainian
  440. Default                                  : No
  441. Forced                                   : No
  442.  
  443. Text #25
  444. ID                                       : 29
  445. Format                                   : UTF-8
  446. Codec ID                                 : S_TEXT/UTF8
  447. Codec ID/Info                            : UTF-8 Plain Text
  448. Duration                                 : 1 h 57 min
  449. Bit rate                                 : 62 b/s
  450. Count of elements                        : 1223
  451. Stream size                              : 53.8 KiB (0%)
  452. Title                                    : Vietnamese
  453. Language                                 : Vietnamese
  454. Default                                  : No
  455. Forced                                   : No

Reply to "Dynasty Warriors (2021)"

Here you can reply to the paste above

abcdefg